#TITLE:Step Up;
#SUBTITLE:;
#ARTIST:Darin Zanyar;
#TITLETRANSLIT:Step Up;
#SUBTITLETRANSLIT:;
#ARTISTTRANSLIT:Darin Zanyar;
#CREDIT:;
#BANNER:Step Up-bn.png;
#BACKGROUND:Step Up-bg.png;
#LYRICSPATH:;
#CDTITLE:pm4cd.png;
#MUSIC:Step Up.mp3;
#OFFSET:0.100;
#SAMPLESTART:47.220;
#SAMPLELENGTH:20.000;
#SELECTABLE:YES;
#BPMS:0.000=103.040,148.250=51.560,150.250=103.040,170.250=51.540,172.250=103.040;
#STOPS:;
#BGCHANGES:;
// cache tags:
#FIRSTBEAT:0.250;
#LASTBEAT:315.250;
#SONGFILENAME:Songs/Music V.I.P ^_^/Step Up/Step Up.sm;
#HASMUSIC:1;
#HASBANNER:1;
#MUSICLENGTH:186.488;
// end cache tags

//---------------dance-single - ----------------
#NOTES:
     dance-single:
     :
     Hard:
     12:
     0.907,0.993,1.000,0.032,1.000,729.000,361.000,6.000,0.000,87.000:
0000
0101
0000
0000
0000
1000
0000
0000
0010
0000
0010
0001
0000
0010
0000
0100
,
0000
1100
0000
0000
0000
0001
0000
0000
0010
0000
0010
0100
0000
1000
0000
0010
,
0000
0110
0000
0000
0000
0001
0000
1100
1100
0000
0011
0011
0000
0100
0000
0010
,
0000
0101
0000
0000
0000
0010
0000
0101
0101
0000
1010
2020
0000
0001
0000
0100
,
3030
1111
0000
0000
0000
0010
0000
1100
1100
0000
0110
0110
0000
0001
0000
0010
,
0000
1001
0000
0000
0000
0100
0000
1010
1010
0000
1001
1001
0000
0100
0000
0001
,
0000
1100
0000
0000
0000
0001
0000
0110
0110
0000
1100
1100
0000
0100
0000
1000
,
0000
0101
0000
0000
0000
0010
0000
1001
1001
0000
1010
1010
0000
0100
0000
0001
,
0000
1111
0000
1000
0000
0010
0000
0011
0011
0000
1100
1100
0000
0100
0000
0010
,
0000
1001
0000
0010
0000
0001
0000
0110
0110
0000
1001
1001
0000
0100
0000
0001
,
0000
0110
0000
1000
0000
0100
0000
0101
0101
0000
0011
0011
0000
0001
0000
1000
,
0000
0110
0000
0001
0000
0010
0000
1010
1010
0000
0101
0101
0000
0010
0000
1000
,
0000
1011
0000
0100
0000
0001
0000
1100
1100
0000
1001
1001
0000
0001
0000
0001
,
0010
1100
0000
0010
0000
0100
0000
0011
0011
0000
1010
1010
0000
1000
0000
0010
,
0000
0101
0000
0010
0000
1000
0000
0110
0110
0000
1100
1100
0000
0001
0000
0100
,
0000
1010
0000
0100
0000
0001
0000
0101
0101
0000
0110
0110
0000
0001
0000
0010
,
0000
1100
0010
0001
0010
0100
0010
1100
1100
0010
0101
0101
0010
1000
0100
0010
,
0001
1010
0100
0010
0001
0100
1000
0110
0110
0001
1010
1010
0100
0001
0010
0100
,
1000
0101
0010
0001
0010
1000
0100
0011
0011
0100
1001
1001
0010
0100
0010
0001
,
0010
1200
0000
0000
0000
0001
0000
0011
0011
0000
1001
1001
0000
0010
0000
0000
,
0300
1111
0000
0000
0000
0001
0000
0110
0110
0000
1100
1100
0000
0001
0000
0010
,
0000
1100
0000
0000
0000
1000
0000
0101
0101
0000
1100
1100
0000
0010
0000
0001
,
0000
1010
0000
0000
0000
0100
0000
0101
0101
0000
0110
0110
0000
1000
0000
0010
,
0000
1100
0000
0000
0000
0001
0001
0101
0101
0001
0011
0011
0001
0001
0001
1001
,
0001
1111
0000
0000
0000
0001
0000
1100
1100
0000
0011
0011
0000
0100
0000
1000
,
0000
1010
0000
0000
0000
0001
0000
0011
0011
0000
1001
1001
0000
0010
0000
0100
,
0000
1010
0000
0000
0000
0001
0000
1001
1001
0000
1010
1010
0000
0010
0000
1000
,
0000
1100
0000
0000
0000
0010
0010
0110
0110
0010
1010
1010
0010
0010
0010
0011
,
0010
1111
0000
0000
0000
1000
0000
0110
0110
0000
1100
1100
0000
0010
0000
0001
,
0000
1100
0000
0010
0000
0001
0000
1001
1001
0000
0101
0101
0000
0100
0000
0001
,
0000
0011
0000
0001
0001
0001
0001
1001
1001
0001
0101
0101
0001
0011
0001
1001
,
0000
0101
0000
0010
0000
0100
0000
1010
1010
0000
1100
1100
0000
0000
0000
0001
,
0000
1110
0000
1000
0000
0100
0000
0011
0011
0000
1100
1100
0000
0001
0000
1000
,
0100
0011
0000
0100
0000
0010
0000
0101
0101
0000
1001
1001
0000
0010
0000
1000
,
0000
0101
0000
0010
0000
1000
0000
0011
0011
0000
1100
1100
0000
0010
0000
0100
,
0000
1001
0000
0010
0000
0100
0000
1100
1100
0000
0101
0101
0000
0010
0000
1000
,
0000
2011
0000
0000
0000
0100
0000
0011
0011
0000
0101
0101
0000
3010
0000
0000
,
0001
1020
0001
1000
0100
1000
0001
1100
0030
1111
0000
0001
0000
0100
0000
0011
,
0011
0000
1001
1001
0000
1000
0000
0100
0000
1010
0000
0100
0000
1001
1010
1100
,
1010
1001
1010
1100
1010
1001
1010
1100
1010
1101
0010
0001
0010
0100
1000
0101
,
0101
0010
1001
1001
0010
0100
1000
0100
0001
1010
0100
1000
0100
0010
0100
0011
,
0011
0100
1010
1010
0100
0001
0010
0100
1000
0101
0010
0001
0010
0100
0010
1100
,
1100
0010
0101
0101
0010
0100
0010
1100
0010
0002
0000
0000
0000
0000
0000
1103
,
0000
1111
0000
0000
0000
0010
0000
1100
1100
0000
0110
0110
0000
0001
0000
0010
,
0000
0101
0000
0000
0000
0010
0000
1100
1100
0000
0101
0101
0000
0010
0000
1000
,
0000
0110
0000
0000
0000
0001
0000
1010
1010
0000
0101
0101
0000
0010
0000
0100
,
0000
1001
0000
0000
0000
1000
1000
1001
1001
1000
1010
1010
1000
1000
1000
1100
,
1000
1111
0000
0000
0000
0100
0000
1010
1010
0000
1001
1001
0000
1000
0000
0010
,
0000
1100
0000
0000
0000
0010
0000
1001
1001
0000
1010
1010
0000
0010
0000
0001
,
0000
0110
0000
0000
0000
0010
0000
0011
0011
0000
1100
1100
0000
0010
0000
0001
,
0000
1010
0000
0000
0000
0100
0100
1100
1100
0100
0110
0110
0100
0101
0100
0100
,
0010
1001
0000
0000
0000
0010
0000
0000
0000
1000
0000
0000
0000
0100
0000
0000
,
0000
0011
0000
0000
0000
0010
0000
0000
0000
0100
0000
0000
0000
1000
0000
0000
,
0000
1100
0000
0000
0000
0100
0000
0000
0000
0001
0000
0000
0000
1000
0000
0101
,
0000
0101
0000
0000
0000
1000
0000
0000
0000
0010
0000
0000
0000
0100
0000
0000
,
0000
1111
0000
1000
0000
0100
0000
0011
0011
0000
0110
0110
0000
1000
0000
0100
,
0000
1001
0000
0010
0000
0100
0000
1010
1010
0000
0101
0101
0000
0010
0000
0001
,
0000
0110
0000
1000
0000
0100
0000
1010
1010
0000
1001
1001
0000
0100
0000
0010
,
0000
1001
0000
0100
0000
0010
0000
0101
0101
0000
1010
1010
0000
0100
0000
1000
,
0000
0011
0000
0000
0000
1000
0000
0000
0100
0000
0100
1000
0000
0100
0000
0010
,
0000
0101
0000
0000
0000
0001
0000
0000
0010
0000
0010
0001
0000
0010
0000
0100
,
0000
1010
0000
0000
0000
0010
0000
1001
1001
0000
1010
0100
0000
0010
0000
0101
,
0000
0101
0000
0000
0000
0001
0001
0010
0010
0100
0100
1000
1000
0111
0000
0000
,
0000
1111
0000
0000
0000
1000
0000
0111
0111
0000
1011
1011
0000
0100
0000
1000
,
0000
0111
0000
0000
0000
0001
0000
1011
1011
0000
1110
1110
0000
1000
0000
0100
,
0000
1101
0000
0000
0000
0010
0000
1101
1101
0000
0111
0111
0000
0010
0000
1000
,
0000
1110
0000
0000
0000
0100
0100
1101
1101
0100
0111
0111
0100
1100
0100
0101
,
0100
1111
0000
0000
0000
0001
0000
1110
1110
0000
0111
0111
0000
1000
0000
0010
,
0000
1101
0000
0000
0000
0001
0000
1101
1101
0000
1011
1011
0000
0100
0000
1000
,
0000
0111
0000
0000
0000
1000
0000
0111
0111
0000
1101
1101
0000
0010
0000
0001
,
0000
1110
0000
0000
0000
0010
0010
1011
1011
0010
1110
1110
0010
0011
0010
0110
,
0010
1111
0000
0000
0000
0001
0000
1101
1101
0000
1011
1011
0000
0100
0000
1000
,
0000
1110
0000
0000
0000
0001
0000
0111
0111
0000
1101
1101
0000
0010
0000
0001
,
0000
1110
0000
0000
0000
0100
0000
1011
1011
0000
1101
1101
0000
0010
0000
0001
,
0000
1101
0000
0000
0000
1000
1000
1110
1110
1000
1011
1011
1000
1100
1000
1001
,
1000
1111
0000
0000
0000
1000
0000
0100
0000
0010
0000
0001
0000
0100
0000
0010
,
0000
1000
0000
0100
0000
0010
0000
0001
0000
0010
0000
0100
0000
0001
0000
0010
,
0000
1000
0000
0010
0000
0100
0000
0001
0000
0010
0000
0100
0000
0010
0000
0001
,
0000
0100
0000
0010
0000
0001
0001
0000
1000
0000
0100
0100
0000
0010
0000
0000
;

//---------------dance-single - ----------------
#NOTES:
     dance-single:
     :
     Medium:
     1:
     0.000,0.000,0.000,0.000,0.000,0.000,0.000,0.000,0.000,0.000:
0000
0000
0000
0000
;

//---------------dance-single - ----------------
#NOTES:
     dance-single:
     :
     Easy:
     1:
     0.000,0.000,0.000,0.000,0.000,0.000,0.000,0.000,0.000,0.000:
0000
0000
0000
0000
;
